06.18

Posted by SHNa
2015. 6. 18. 22:30 Mobile & Embedded/베가아이언2

드디어 베가아이언2 터치스크린 한 점 고정 버그가 해결된 것 같다.



베가아이언2 / 베가 LTE-A 기종 MP3 128K / 192K / 320K 재생 시 싱크가 가사와 안맞는 현상 해결

offload 관련 문제


해결완료 후 commit


E/Size    ( 3272): changeDP:124,widthDp:236,widthPx:708
D/Size    ( 3272): W:0,H:0
E/Size    ( 3272): changeDP:124,widthDp:236,widthPx:708
D/ktmusic ( 3272): [[StreamCache][StreamDownloadTask][4816][getCipher]]
D/ktmusic ( 3272): [[StreamCache][StreamDownloadTask][4816][getIdentity]]
D/ktmusic ( 3272): [[StreamCache][StreamDownloadTask][4816][NativeCipher][getKey]]
D/ktmusic ( 3272): [[StreamCache][StreamDownloadTask][4816][getCipher]] Cipher=19
D/ktmusic ( 3272): [[StreamCache][StreamTransferTask][4816][StreamDeliver][getCipher]]
D/ktmusic ( 3272): [[StreamCache][StreamTransferTask][4816][StreamDeliver][getIdentity]]
D/ktmusic ( 3272): [[StreamCache][StreamTransferTask][4816][StreamDeliver][NativeCipher][getKey]]
D/ktmusic ( 3272): [[StreamCache][StreamTransferTask][4816][StreamDeliver][getCipher]] Cipher=19
I/FFmpegExtractor(  326): android-source:0xb5871940
I/FFMPEG  (  326): Input #0, mp3, from 'android-source:0xb5871940':
I/FFMPEG  (  326):   Metadata:
I/FFMPEG  (  326):     title           : 이럴거면 그러지말지 (Feat. Young K)
I/FFMPEG  (  326):     artist          : 백아연
I/FFMPEG  (  326):     album           : 이럴거면 그러지말지
I/FFMPEG  (  326):     genre           : Soul
I/FFMPEG  (  326):     track           : 1
I/FFMPEG  (  326):     disc            : 1
I/FFMPEG  (  326):     album_artist    : 백아연
I/FFMPEG  (  326):     ENCODEDBY       : KT MUSIC CORP.
I/FFMPEG  (  326):     COPYRIGHT       : 해당곡의 저작권자
I/FFMPEG  (  326):     WWW             : http://www.ollehmusic.com
I/FFMPEG  (  326):     date            : 2015
I/FFMPEG  (  326):   Duration: 00:03:32.87, start: 0.025056, bitrate: 326 kb/s
I/FFMPEG  (  326):     Stream #0:0: Audio: mp3, 44100 Hz, stereo, s16p, 320 kb/s
I/FFMPEG  (  326):     Metadata:
I/FFMPEG  (  326):       encoder         : LAME3.99r
I/FFMPEG  (  326):     Side data:
I/FFMPEG  (  326):       replaygain: track gain - -10.900000, track peak - unknown, album gain - unknown, album peak - unknown,
I/FFMPEG  (  326):     Stream #0:1: Video: mjpeg, yuvj444p(pc, bt470bg/unknown/unknown), 600x600 [SAR 72:72 DAR 1:1], 90k tbr, 90k tbn, 90k tbc
I/FFMPEG  (  326):     Metadata:
I/FFMPEG  (  326):       title           :
I/FFMPEG  (  326):       comment         : Cover (front)
D/FFmpegExtractor(  326): FFmpegExtrator, url: android-source:0xb5871940, format_name: mp3, format_long_name: MP2/3 (MPEG audio layer 2/3)
D/FFmpegExtractor(  326): suppoted codec(mp3) by official Stagefright
D/FFmpegExtractor(  326): ffmpeg detected media content as 'audio/mpeg' with confidence 0.08
D/ExtendedUtils(  326): extended extractor not needed, return default
E/MediaPlayer( 3272): Should have subtitle controller already set
I/AudioPlayerService( 3272): Total Play time = -1453





'Mobile & Embedded > 베가아이언2' 카테고리의 다른 글

06.20  (0) 2015.06.20
06.19  (0) 2015.06.19
06.18  (0) 2015.06.18
0614-0616  (0) 2015.06.16
06-0613  (0) 2015.06.13
15.06.06  (0) 2015.06.06
이 댓글을 비밀 댓글로